您的位置:QvoCD电骡 > 欧美电影 > 资源下载

《奥维尔》(Orville)2009.DVDRip


总分0.0
  • 评分:0人参与评分
  • 分级: 资源
  • 类型:欧美电影
  • 格式:[DVDRip]
  • 发行时间:2009年
  • 地区/语言:美国(英语 )
  • 统计:1800次 浏览
  • 时间:2011.9.28 01:15发布 | 2011.9.28 09:35更新

电骡资源

简介


引用
转载请注明 QvoCD电骡

◎译  名   奥维尔 
◎片  名 Orville
◎年  代 2009
◎国  家 美国
◎类  别 恐怖
◎语  言 英语
◎字  幕 N/A
◎IMDB评分 6.0/10 (7 votes)
◎IMDB链接 http://www.imdb.com/title/tt0796345/
◎文件格式 XviD + MP3
◎视频尺寸 720 x 432
◎文件大小 1CD 37 x 20MB
◎片  长 81 Mins
◎导  演 克雷格·麦克马洪 Craig McMahon
◎主  演 
Kathleen Benner ....Kelly
Kevin Moyers ....Orville
大卫·哈耶斯 David C. Hayes ....Little Will
Erin Del Rosso ....Dianna
Juan Marquez ....Dead Guy
Kimberly Piol ....Terry
Lanny Rethaber ....Psycho-therapist
乔斯·罗赛特 Jose Rosete ....Assassin

简介

Orville is a freaked demented pervert who wants a wife. But his wais to date is a little….. different. He locks the girls in a cage and then beats, chops, torture, saw and finally kill them All!

代码
General
Complete name               : Orville.2009.DVDRip.Xvid-TiCTaC.avi
Format                   : AVI
Format/Info               : Audio Video Interleave
File size                 : 849 MiB
Duration                 : 1h 21mn
Overall bit rate             : 1 452 Kbps
Writing application           : Lavf52.13.0

Video
ID                     : 0
Format                   : MPEG-4 Visual
Format profile             : Simple@L1
Format settings, BVOP         : No
Format settings, QPel         : No
Format settings, GMC         : No warppoints
Format settings, Matrix       : Default (H.263)
Codec ID                 : XVID
Codec ID/Hint               : XviD
Duration                 : 1h 21mn
Bit rate                 : 1 248 Kbps
Width                   : 720 pixels
Height                   : 432 pixels
Display aspect ratio         : 16:9
Frame rate                 : 25.000 fps
Color space               : YUV
Chroma subsampling           : 4:2:0
Bit depth                 : 8 bits
Scan type                 : Progressive
Compression mode             : Lossy
Bits/(Pixel*Frame)           : 0.160
Stream size               : 730 MiB (86%)
Writing library             : Lavc51.54.0

Audio
ID                     : 1
Format                   : MPEG Audio
Format version             : Version 1
Format profile             : Layer 3
Mode                     : Joint stereo
Mode extension             : MS Stereo
Codec ID                 : 55
Codec ID/Hint               : MP3
Duration                 : 1h 21mn
Bit rate mode               : Constant
Bit rate                 : 192 Kbps
Channel(s)                 : 2 channels
Sampling rate               : 44.1 KHz
Compression mode             : Lossy
Stream size               : 112 MiB (13%)
Alignment                 : Aligned on interleaves
Interleave, duration         : 26 ms (0.65 video frame)
Interleave, preload duration     : 26 ms

Tag



楼主最新资源

资源评论

请稍后,评论正在加载中....

我要评论

粗体 斜体 下划线 链接 引用 代码 图片 FLASH 资源评分:很好 不错 一般 较差 很差
您还没有登录,不能评论! (评论限制6 - 200 字节内)
表情
  • 小贴士:

  • 1. 类似“顶”、“沙发”之类没有营养的文字,对勤劳贡献的楼主来说是令人沮丧的反馈信息。
  • 2. 提问之前请再仔细看一遍楼主的说明,或许是您遗漏了。
  • 3. 勿催片。请相信骡友们对分享是富有激情的,如果确有更新版本,您一定能搜索到。
  • 4. 请勿到处挖坑绊人、招贴广告。即占空间让人厌烦,又没人会搭理,于人于己都无利。
  • 如果您发现自己的评论不见了,请参考以上4条。
点击复制本页面地址给QQ/MSN/Gtalk好友

楼主信息...
更多
你可能喜欢的
关于我们 / 人才招募 / 商务合作 / 版权声明
苏ICP备13012676号-3 | 分享资源 | 请在遵循创作共用的约定下使用本站内容
©2006-2012 QvoCD.Com Inc. All rights Reserved.