《奥维尔》(Orville)2009.DVDRip

918_功夫胸毛 2011-9-28 765

《奥维尔》(Orville)2009.DVDRip
[quote][b]转载请注明 QvoCD电骡[/b][/quote] ◎译  名   奥维尔  ◎片  名 Orville ◎年  代 2009 ◎国  家 美国 ◎类  别 恐怖 ◎语  言 英语 ◎字  幕 N/A ◎IMDB评分 6.0/10 (7 votes) ◎IMDB链接 http://www.imdb.com/title/tt0796345/ ◎文件格式 XviD + MP3 ◎视频尺寸 720 x 432 ◎文件大小 1CD 37 x 20MB ◎片  长 81 Mins ◎导  演 克雷格·麦克马洪 Craig McMahon ◎主  演  Kathleen Benner ....Kelly Kevin Moyers ....Orville 大卫·哈耶斯 David C. Hayes ....Little Will Erin Del Rosso ....Dianna Juan Marquez ....Dead Guy Kimberly Piol ....Terry Lanny Rethaber ....Psycho-therapist 乔斯·罗赛特 Jose Rosete ....Assassin 简介 Orville is a freaked demented pervert who wants a wife. But his wais to date is a little….. different. He locks the girls in a cage and then beats, chops, torture, saw and finally kill them All! [code]General Complete name             : Orville.2009.DVDRip.Xvid-TiCTaC.avi Format                   : AVI Format/Info               : Audio Video Interleave File size                 : 849 MiB Duration                 : 1h 21mn Overall bit rate           : 1 452 Kbps Writing application         : Lavf52.13.0 Video ID                     : 0 Format                   : MPEG-4 Visual Format profile             : Simple@L1 Format settings, BVOP         : No Format settings, QPel         : No Format settings, GMC         : No warppoints Format settings, Matrix       : Default (H.263) Codec ID                 : XVID Codec ID/Hint             : XviD Duration                 : 1h 21mn Bit rate                 : 1 248 Kbps Width                   : 720 pixels Height                   : 432 pixels Display aspect ratio         : 16:9 Frame rate               : 25.000 fps Color space               : YUV Chroma subsampling           : 4:2:0 Bit depth                 : 8 bits Scan type                 : Progressive Compression mode           : Lossy Bits/(Pixel*Frame)           : 0.160 Stream size               : 730 MiB (86%) Writing library             : Lavc51.54.0 Audio ID                     : 1 Format                   : MPEG Audio Format version             : Version 1 Format profile             : Layer 3 Mode                   : Joint stereo Mode extension             : MS Stereo Codec ID                 : 55 Codec ID/Hint             : MP3 Duration                 : 1h 21mn Bit rate mode             : Constant Bit rate                 : 192 Kbps Channel(s)               : 2 channels Sampling rate             : 44.1 KHz Compression mode           : Lossy Stream size               : 112 MiB (13%) Alignment                 : Aligned on interleaves Interleave, duration         : 26 ms (0.65 video frame) Interleave, preload duration   : 26 ms[/code].'
'.
电驴
最新回复 (0)
返回
发新帖